<?xml version="1.0" encoding="UTF-8" standalone="no"?>
<svg xmlns:dc="http://purl.org/dc/elements/1.1/" xmlns:cc="http://creativecommons.org/ns#" xmlns:rdf="http://www.w3.org/1999/02/22-rdf-syntax-ns#" xmlns:svg="http://www.w3.org/2000/svg" xmlns="http://www.w3.org/2000/svg" xmlns:sodipodi="http://sodipodi.sourceforge.net/DTD/sodipodi-0.dtd" xmlns:inkscape="http://www.inkscape.org/namespaces/inkscape" version="1.1" x="0px" y="0px" width="201.17958" height="199.14439" viewBox="0 0 201.17958 199.14439" id="svg5212" inkscape:version="0.48.1 r9760" sodipodi:docname="Flower_of_life_base_01.svg" style="display:inline" inkscape:export-filename="Z:\enon\Graphics\Inkscape\Sacred\Flower_of_life_base_01.png" inkscape:export-xdpi="357.88919" inkscape:export-ydpi="357.88919">
  <metadata id="metadata7437">
    <rdf:RDF>
      <cc:Work rdf:about="">
        <dc:format>image/svg+xml</dc:format>
        <dc:type rdf:resource="http://purl.org/dc/dcmitype/StillImage"/>
        <dc:title/>
      </cc:Work>
    </rdf:RDF>
  </metadata>
  <defs id="defs7435">
    <defs id="defs7374">
      <font id="Helvetica" horiz-origin-x="0" horiz-origin-y="0" horiz-adv-x="90" vert-origin-x="45" vert-origin-y="90" vert-adv-y="90">
        <font-face id="font-face7377" desscent="21.972656" ascent="100.53711" units-per-em="100" font-size="100" font-style="normal" font-weight="normal" font-family="Helvetica"/>
        <missing-glyph id="missing-glyph7379" d="M 12.5 -0 L 12.5 62.5 L 62.5 62.5 L 62.5 -0 L 12.5 -0 z M 14.0625 1.5625 L 60.9375 1.5625 L 60.9375 60.9375 L 14.0625 60.9375 L 14.0625 1.5625 z" horiz-adv-x="75"/>
        <glyph id="glyph7381" d="M 50.34375 8.453125 L 50.34375 -0 L 3.03125 -0 Q 2.9375 3.171875 4.046875 6.109375 Q 5.859375 10.9375 9.8359375 15.625 Q 13.8125 20.3125 21.34375 26.46875 Q 33.015625 36.03125 37.1171875 41.625 Q 41.21875 47.21875 41.21875 52.203125 Q 41.21875 57.421875 37.4765625 61.0078125 Q 33.734375 64.59375 27.734375 64.59375 Q 21.390625 64.59375 17.578125 60.7890625 Q 13.765625 56.984375 13.71875 50.25 L 4.6875 51.171875 Q 5.609375 61.28125 11.6640625 66.578125 Q 17.71875 71.875 27.9375 71.875 Q 38.234375 71.875 44.2421875 66.1640625 Q 50.25 60.453125 50.25 52 Q 50.25 47.703125 48.4921875 43.5546875 Q 46.734375 39.40625 42.65625 34.8125 Q 38.578125 30.21875 29.109375 22.21875 Q 21.1875 15.578125 18.9453125 13.2109375 Q 16.703125 10.84375 15.234375 8.453125 L 50.34375 8.453125 z" horiz-adv-x="55.615234375" unicode="2"/>
        <glyph id="glyph7383" d="M 61.96875 7.671875 Q 68.5625 3.125 74.125 1.03125 L 71.34375 -5.5625 Q 63.625 -2.78125 55.953125 3.21875 Q 48 -1.21875 38.375 -1.21875 Q 28.65625 -1.21875 20.75 3.46875 Q 12.84375 8.15625 8.5703125 16.6484375 Q 4.296875 25.140625 4.296875 35.796875 Q 4.296875 46.390625 8.59375 55.078125 Q 12.890625 63.765625 20.828125 68.3125 Q 28.765625 72.859375 38.578125 72.859375 Q 48.484375 72.859375 56.4453125 68.140625 Q 64.40625 63.421875 68.578125 54.953125 Q 72.75 46.484375 72.75 35.84375 Q 72.75 27 70.0703125 19.9453125 Q 67.390625 12.890625 61.96875 7.671875 z M 41.109375 19.78125 Q 49.3125 17.484375 54.640625 12.9375 Q 62.984375 20.5625 62.984375 35.84375 Q 62.984375 44.53125 60.03125 51.0234375 Q 57.078125 57.515625 51.390625 61.109375 Q 45.703125 64.703125 38.625 64.703125 Q 28.03125 64.703125 21.046875 57.453125 Q 14.0625 50.203125 14.0625 35.796875 Q 14.0625 21.828125 20.96875 14.359375 Q 27.875 6.890625 38.625 6.890625 Q 43.703125 6.890625 48.1875 8.796875 Q 43.75 11.671875 38.8125 12.890625 L 41.109375 19.78125 z" horiz-adv-x="77.783203125" unicode="Q"/>
        <glyph id="glyph7385" d="M 7.71875 -0 L 7.71875 71.578125 L 34.71875 71.578125 Q 41.84375 71.578125 45.609375 70.90625 Q 50.875 70.015625 54.4453125 67.5546875 Q 58.015625 65.09375 60.1875 60.6484375 Q 62.359375 56.203125 62.359375 50.875 Q 62.359375 41.75 56.546875 35.4296875 Q 50.734375 29.109375 35.546875 29.109375 L 17.1875 29.109375 L 17.1875 -0 L 7.71875 -0 z M 17.1875 37.546875 L 35.6875 37.546875 Q 44.875 37.546875 48.734375 40.96875 Q 52.59375 44.390625 52.59375 50.59375 Q 52.59375 55.078125 50.3203125 58.2734375 Q 48.046875 61.46875 44.34375 62.5 Q 41.9375 63.140625 35.5 63.140625 L 17.1875 63.140625 L 17.1875 37.546875 z" horiz-adv-x="66.69921875" unicode="P"/>
        <glyph id="glyph7387" d="M 7.90625 -0 L 7.90625 71.578125 L 59.671875 71.578125 L 59.671875 63.140625 L 17.390625 63.140625 L 17.390625 41.21875 L 56.984375 41.21875 L 56.984375 32.8125 L 17.390625 32.8125 L 17.390625 8.453125 L 61.328125 8.453125 L 61.328125 -0 L 7.90625 -0 z" horiz-adv-x="66.69921875" unicode="E"/>
        <glyph id="glyph7389" d="M 7.71875 -0 L 7.71875 71.578125 L 32.375 71.578125 Q 40.71875 71.578125 45.125 70.5625 Q 51.265625 69.140625 55.609375 65.4375 Q 61.28125 60.640625 64.0859375 53.1953125 Q 66.890625 45.75 66.890625 36.1875 Q 66.890625 28.03125 64.9921875 21.734375 Q 63.09375 15.4375 60.109375 11.3046875 Q 57.125 7.171875 53.5859375 4.8046875 Q 50.046875 2.4375 45.046875 1.21875 Q 40.046875 -0 33.546875 -0 L 7.71875 -0 z M 17.1875 8.453125 L 32.46875 8.453125 Q 39.546875 8.453125 43.578125 9.765625 Q 47.609375 11.078125 50 13.484375 Q 53.375 16.84375 55.25 22.53125 Q 57.125 28.21875 57.125 36.328125 Q 57.125 47.5625 53.4375 53.59375 Q 49.75 59.625 44.484375 61.671875 Q 40.671875 63.140625 32.234375 63.140625 L 17.1875 63.140625 L 17.1875 8.453125 z" horiz-adv-x="72.216796875" unicode="D"/>
        <glyph id="glyph7391" d="M 58.796875 25.09375 L 68.265625 22.703125 Q 65.28125 11.03125 57.546875 4.90625 Q 49.8125 -1.21875 38.625 -1.21875 Q 27.046875 -1.21875 19.796875 3.4921875 Q 12.546875 8.203125 8.765625 17.140625 Q 4.984375 26.078125 4.984375 36.328125 Q 4.984375 47.515625 9.2578125 55.8359375 Q 13.53125 64.15625 21.4140625 68.4765625 Q 29.296875 72.796875 38.765625 72.796875 Q 49.515625 72.796875 56.8359375 67.328125 Q 64.15625 61.859375 67.046875 51.953125 L 57.71875 49.75 Q 55.21875 57.5625 50.484375 61.1328125 Q 45.75 64.703125 38.578125 64.703125 Q 30.328125 64.703125 24.78125 60.7421875 Q 19.234375 56.78125 16.9921875 50.1171875 Q 14.75 43.453125 14.75 36.375 Q 14.75 27.25 17.40625 20.4375 Q 20.0625 13.625 25.6796875 10.2578125 Q 31.296875 6.890625 37.84375 6.890625 Q 45.796875 6.890625 51.3203125 11.4765625 Q 56.84375 16.0625 58.796875 25.09375 z" horiz-adv-x="72.216796875" unicode="C"/>
        <glyph id="glyph7393" d="M 7.328125 -0 L 7.328125 71.578125 L 34.1875 71.578125 Q 42.390625 71.578125 47.34375 69.40625 Q 52.296875 67.234375 55.1015625 62.71875 Q 57.90625 58.203125 57.90625 53.265625 Q 57.90625 48.6875 55.421875 44.6328125 Q 52.9375 40.578125 47.90625 38.09375 Q 54.390625 36.1875 57.8828125 31.59375 Q 61.375 27 61.375 20.75 Q 61.375 15.71875 59.25 11.3984375 Q 57.125 7.078125 54 4.734375 Q 50.875 2.390625 46.1640625 1.1953125 Q 41.453125 -0 34.625 -0 L 7.328125 -0 z M 16.796875 41.5 L 32.28125 41.5 Q 38.578125 41.5 41.3125 42.328125 Q 44.921875 43.40625 46.75 45.8984375 Q 48.578125 48.390625 48.578125 52.15625 Q 48.578125 55.71875 46.875 58.4296875 Q 45.171875 61.140625 41.9921875 62.140625 Q 38.8125 63.140625 31.109375 63.140625 L 16.796875 63.140625 L 16.796875 41.5 z M 16.796875 8.453125 L 34.625 8.453125 Q 39.203125 8.453125 41.0625 8.796875 Q 44.34375 9.375 46.5390625 10.7421875 Q 48.734375 12.109375 50.1484375 14.71875 Q 51.5625 17.328125 51.5625 20.75 Q 51.5625 24.75 49.515625 27.7109375 Q 47.46875 30.671875 43.828125 31.8671875 Q 40.1875 33.0625 33.34375 33.0625 L 16.796875 33.0625 L 16.796875 8.453125 z" horiz-adv-x="66.69921875" unicode="B"/>
        <glyph id="glyph7395" d="M -0.140625 -0 L 27.34375 71.578125 L 37.546875 71.578125 L 66.84375 -0 L 56.0625 -0 L 47.703125 21.6875 L 17.78125 21.6875 L 9.90625 -0 L -0.140625 -0 z M 20.515625 29.390625 L 44.78125 29.390625 L 37.3125 49.21875 Q 33.890625 58.25 32.234375 64.0625 Q 30.859375 57.171875 28.375 50.390625 L 20.515625 29.390625 z" horiz-adv-x="66.69921875" unicode="A"/>
        <glyph id="glyph7397" d="M 2 -0 L 2 8.796875 L 38.671875 54.640625 Q 42.578125 59.515625 46.09375 63.140625 L 6.15625 63.140625 L 6.15625 71.578125 L 57.421875 71.578125 L 57.421875 63.140625 L 17.234375 13.484375 L 12.890625 8.453125 L 58.59375 8.453125 L 58.59375 -0 L 2 -0 z" horiz-adv-x="61.083984375" unicode="Z"/>
        <glyph id="glyph7399" d="M 37.25 -0 L 28.46875 -0 L 28.46875 56 Q 25.296875 52.984375 20.140625 49.953125 Q 14.984375 46.921875 10.890625 45.40625 L 10.890625 53.90625 Q 18.265625 57.375 23.78125 62.3046875 Q 29.296875 67.234375 31.59375 71.875 L 37.25 71.875 L 37.25 -0 z" horiz-adv-x="55.615234375" unicode="1"/>
        <glyph id="glyph7401" d="M 4.828125 34.859375 Q 4.828125 52.6875 14.3984375 62.7734375 Q 23.96875 72.859375 39.109375 72.859375 Q 49.03125 72.859375 56.984375 68.1171875 Q 64.9375 63.375 69.1171875 54.90625 Q 73.296875 46.4375 73.296875 35.6875 Q 73.296875 24.8125 68.8984375 16.21875 Q 64.5 7.625 56.4453125 3.203125 Q 48.390625 -1.21875 39.0625 -1.21875 Q 28.953125 -1.21875 20.9921875 3.6640625 Q 13.03125 8.546875 8.9296875 16.9921875 Q 4.828125 25.4375 4.828125 34.859375 z M 14.59375 34.71875 Q 14.59375 21.78125 21.5546875 14.3359375 Q 28.515625 6.890625 39.015625 6.890625 Q 49.703125 6.890625 56.6171875 14.40625 Q 63.53125 21.921875 63.53125 35.75 Q 63.53125 44.484375 60.578125 51 Q 57.625 57.515625 51.9296875 61.109375 Q 46.234375 64.703125 39.15625 64.703125 Q 29.109375 64.703125 21.8515625 57.7890625 Q 14.59375 50.875 14.59375 34.71875 z" horiz-adv-x="77.783203125" unicode="O"/>
        <glyph id="glyph7403" d="M 7.625 -0 L 7.625 71.578125 L 17.328125 71.578125 L 54.9375 15.375 L 54.9375 71.578125 L 64.015625 71.578125 L 64.015625 -0 L 54.296875 -0 L 16.703125 56.25 L 16.703125 -0 L 7.625 -0 z" horiz-adv-x="72.216796875" unicode="N"/>
        <glyph id="glyph7405" d="M 7.421875 -0 L 7.421875 71.578125 L 21.6875 71.578125 L 38.625 20.90625 Q 40.96875 13.8125 42.046875 10.296875 Q 43.265625 14.203125 45.84375 21.78125 L 62.984375 71.578125 L 75.734375 71.578125 L 75.734375 -0 L 66.609375 -0 L 66.609375 59.90625 L 45.796875 -0 L 37.25 -0 L 16.546875 60.9375 L 16.546875 -0 L 7.421875 -0 z" horiz-adv-x="83.30078125" unicode="M"/>
        <glyph id="glyph7407" d="M 7.328125 -0 L 7.328125 71.578125 L 16.796875 71.578125 L 16.796875 8.453125 L 52.046875 8.453125 L 52.046875 -0 L 7.328125 -0 z" horiz-adv-x="55.615234375" unicode="L"/>
        <glyph id="glyph7409" d="M 7.328125 -0 L 7.328125 71.578125 L 16.796875 71.578125 L 16.796875 36.078125 L 52.34375 71.578125 L 65.1875 71.578125 L 35.15625 42.578125 L 66.5 -0 L 54 -0 L 28.515625 36.234375 L 16.796875 24.8125 L 16.796875 -0 L 7.328125 -0 z" horiz-adv-x="66.69921875" unicode="K"/>
        <glyph id="glyph7411" d="M 2.875 20.3125 L 11.421875 21.484375 Q 11.765625 13.28125 14.5 10.2578125 Q 17.234375 7.234375 22.078125 7.234375 Q 25.640625 7.234375 28.2265625 8.8671875 Q 30.8125 10.5 31.7890625 13.3046875 Q 32.765625 16.109375 32.765625 22.265625 L 32.765625 71.578125 L 42.234375 71.578125 L 42.234375 22.796875 Q 42.234375 13.8125 40.0625 8.8828125 Q 37.890625 3.953125 33.1796875 1.3671875 Q 28.46875 -1.21875 22.125 -1.21875 Q 12.703125 -1.21875 7.6953125 4.203125 Q 2.6875 9.625 2.875 20.3125 z" horiz-adv-x="50" unicode="J"/>
        <glyph id="glyph7413" d="M 9.328125 -0 L 9.328125 71.578125 L 18.796875 71.578125 L 18.796875 -0 L 9.328125 -0 z" horiz-adv-x="27.783203125" unicode="I"/>
        <glyph id="glyph7415" d="M 8.015625 -0 L 8.015625 71.578125 L 17.484375 71.578125 L 17.484375 42.1875 L 54.6875 42.1875 L 54.6875 71.578125 L 64.15625 71.578125 L 64.15625 -0 L 54.6875 -0 L 54.6875 33.734375 L 17.484375 33.734375 L 17.484375 -0 L 8.015625 -0 z" horiz-adv-x="72.216796875" unicode="H"/>
        <glyph id="glyph7417" d="M 41.21875 28.078125 L 41.21875 36.46875 L 71.53125 36.53125 L 71.53125 9.96875 Q 64.546875 4.390625 57.125 1.5859375 Q 49.703125 -1.21875 41.890625 -1.21875 Q 31.34375 -1.21875 22.7265625 3.296875 Q 14.109375 7.8125 9.71875 16.359375 Q 5.328125 24.90625 5.328125 35.453125 Q 5.328125 45.90625 9.6953125 54.9609375 Q 14.0625 64.015625 22.265625 68.40625 Q 30.46875 72.796875 41.15625 72.796875 Q 48.921875 72.796875 55.1953125 70.2890625 Q 61.46875 67.78125 65.0390625 63.2890625 Q 68.609375 58.796875 70.453125 51.5625 L 61.921875 49.21875 Q 60.296875 54.6875 57.90625 57.8125 Q 55.515625 60.9375 51.0703125 62.8203125 Q 46.625 64.703125 41.21875 64.703125 Q 34.71875 64.703125 29.984375 62.7265625 Q 25.25 60.75 22.34375 57.5234375 Q 19.4375 54.296875 17.828125 50.4375 Q 15.09375 43.796875 15.09375 36.03125 Q 15.09375 26.46875 18.390625 20.0234375 Q 21.6875 13.578125 27.984375 10.453125 Q 34.28125 7.328125 41.359375 7.328125 Q 47.515625 7.328125 53.375 9.6953125 Q 59.234375 12.0625 62.25 14.75 L 62.25 28.078125 L 41.21875 28.078125 z" horiz-adv-x="77.783203125" unicode="G"/>
        <glyph id="glyph7419" d="M 8.203125 -0 L 8.203125 71.578125 L 56.5 71.578125 L 56.5 63.140625 L 17.671875 63.140625 L 17.671875 40.96875 L 51.265625 40.96875 L 51.265625 32.515625 L 17.671875 32.515625 L 17.671875 -0 L 8.203125 -0 z" horiz-adv-x="61.083984375" unicode="F"/>
        <glyph id="glyph7421" d="M 20.21875 -0 L 1.21875 71.578125 L 10.9375 71.578125 L 21.828125 24.65625 Q 23.578125 17.28125 24.859375 10.015625 Q 27.59375 21.484375 28.078125 23.25 L 41.703125 71.578125 L 53.125 71.578125 L 63.375 35.359375 Q 67.234375 21.875 68.953125 10.015625 Q 70.3125 16.796875 72.515625 25.59375 L 83.734375 71.578125 L 93.265625 71.578125 L 73.640625 -0 L 64.5 -0 L 49.421875 54.546875 Q 47.515625 61.375 47.171875 62.9375 Q 46.046875 58.015625 45.0625 54.546875 L 29.890625 -0 L 20.21875 -0 z" horiz-adv-x="94.384765625" unicode="W"/>
        <glyph id="glyph7423" d="M 28.171875 -0 L 0.4375 71.578125 L 10.6875 71.578125 L 29.296875 19.578125 Q 31.546875 13.328125 33.0625 7.859375 Q 34.71875 13.71875 36.921875 19.578125 L 56.25 71.578125 L 65.921875 71.578125 L 37.890625 -0 L 28.171875 -0 z" horiz-adv-x="66.69921875" unicode="V"/>
        <glyph id="glyph7425" d="M 54.6875 71.578125 L 64.15625 71.578125 L 64.15625 30.21875 Q 64.15625 19.4375 61.71875 13.0859375 Q 59.28125 6.734375 52.90625 2.7578125 Q 46.53125 -1.21875 36.1875 -1.21875 Q 26.125 -1.21875 19.7265625 2.25 Q 13.328125 5.71875 10.59375 12.28125 Q 7.859375 18.84375 7.859375 30.21875 L 7.859375 71.578125 L 17.328125 71.578125 L 17.328125 30.28125 Q 17.328125 20.953125 19.0625 16.53125 Q 20.796875 12.109375 25.0234375 9.71875 Q 29.25 7.328125 35.359375 7.328125 Q 45.796875 7.328125 50.2421875 12.0625 Q 54.6875 16.796875 54.6875 30.28125 L 54.6875 71.578125 z" horiz-adv-x="72.216796875" unicode="U"/>
        <glyph id="glyph7427" d="M 25.921875 -0 L 25.921875 63.140625 L 2.34375 63.140625 L 2.34375 71.578125 L 59.078125 71.578125 L 59.078125 63.140625 L 35.40625 63.140625 L 35.40625 -0 L 25.921875 -0 z" horiz-adv-x="61.083984375" unicode="T"/>
        <glyph id="glyph7429" d="M 4.5 23 L 13.421875 23.78125 Q 14.0625 18.40625 16.3828125 14.96875 Q 18.703125 11.53125 23.5859375 9.40625 Q 28.46875 7.28125 34.578125 7.28125 Q 39.984375 7.28125 44.140625 8.890625 Q 48.296875 10.5 50.3203125 13.3046875 Q 52.34375 16.109375 52.34375 19.4375 Q 52.34375 22.796875 50.390625 25.3125 Q 48.4375 27.828125 43.953125 29.546875 Q 41.0625 30.671875 31.203125 33.0390625 Q 21.34375 35.40625 17.390625 37.5 Q 12.25 40.1875 9.7421875 44.1640625 Q 7.234375 48.140625 7.234375 53.078125 Q 7.234375 58.5 10.3046875 63.2109375 Q 13.375 67.921875 19.2890625 70.359375 Q 25.203125 72.796875 32.421875 72.796875 Q 40.375 72.796875 46.4609375 70.234375 Q 52.546875 67.671875 55.8125 62.6953125 Q 59.078125 57.71875 59.328125 51.421875 L 50.25 50.734375 Q 49.515625 57.515625 45.2890625 60.984375 Q 41.0625 64.453125 32.8125 64.453125 Q 24.21875 64.453125 20.2890625 61.3046875 Q 16.359375 58.15625 16.359375 53.71875 Q 16.359375 49.859375 19.140625 47.359375 Q 21.875 44.875 33.421875 42.265625 Q 44.96875 39.65625 49.265625 37.703125 Q 55.515625 34.8125 58.4921875 30.3984375 Q 61.46875 25.984375 61.46875 20.21875 Q 61.46875 14.5 58.203125 9.4453125 Q 54.9375 4.390625 48.8046875 1.5859375 Q 42.671875 -1.21875 35.015625 -1.21875 Q 25.296875 -1.21875 18.7265625 1.609375 Q 12.15625 4.4375 8.421875 10.1328125 Q 4.6875 15.828125 4.5 23 z" horiz-adv-x="66.69921875" unicode="S"/>
        <glyph id="glyph7431" d="M 7.859375 -0 L 7.859375 71.578125 L 39.59375 71.578125 Q 49.171875 71.578125 54.1484375 69.6484375 Q 59.125 67.71875 62.109375 62.8359375 Q 65.09375 57.953125 65.09375 52.046875 Q 65.09375 44.4375 60.15625 39.2109375 Q 55.21875 33.984375 44.921875 32.5625 Q 48.6875 30.765625 50.640625 29 Q 54.78125 25.203125 58.5 19.484375 L 70.953125 -0 L 59.03125 -0 L 49.5625 14.890625 Q 45.40625 21.34375 42.7265625 24.7578125 Q 40.046875 28.171875 37.921875 29.5390625 Q 35.796875 30.90625 33.59375 31.453125 Q 31.984375 31.78125 28.328125 31.78125 L 17.328125 31.78125 L 17.328125 -0 L 7.859375 -0 z M 17.328125 39.984375 L 37.703125 39.984375 Q 44.1875 39.984375 47.8515625 41.328125 Q 51.515625 42.671875 53.421875 45.625 Q 55.328125 48.578125 55.328125 52.046875 Q 55.328125 57.125 51.640625 60.3984375 Q 47.953125 63.671875 39.984375 63.671875 L 17.328125 63.671875 L 17.328125 39.984375 z" horiz-adv-x="72.216796875" unicode="R"/>
      </font>
</defs>
</svg>
